Download Pixels - Cam - {Improved Video & Audio} - HEVC X265 - MaxillionTorrent

login Login create account Create account Separator English  Francais  Espanol  Italiano  Deutsch
Torrent > Movies > Action > Pixels - Cam - {Improved Video & Audio} - HEVC X265 - Maxillion


Verified Pixels - Cam - {Improved Video & Audio} - HEVC X265 - Maxillion


Download

Information about Pixels - Cam - {Improved Video & Audio} - HEVC X265 - Maxillion

- Download torrent

Seeds 427
Peers 484
Size 677.8 MB
Date Wednesday, 29 July 2015 at 08:56:58
Comments 0
Category Movies Action
Hash 0c7bc7110c6eb9f94250c4d4726b94cf11d13b36
Reported Verified (1) - Fake (1) - Password (1) - Virus (1)
Uploader maxillion666

Description




Director: Chris Columbus
Writers: Tim Herlihy (screenplay), Timothy Dowling (screenplay)
Stars: Adam Sandler, Kevin James, Michelle Monaghan


Storyline

When aliens misinterpret video feeds of classic arcade games as a declaration of war, they attack the Earth in the form of the video games.




SCREENSHOTS


http://sh.st/vqzO7



Format : MPEG-4
Format profile : Base Media
Codec ID : isom
File size : 677 MiB
Duration : 1h 41mn
Overall bit rate mode : Variable
Overall bit rate : 935 Kbps
Movie name : Pixels


Video
ID : 1
Format : HEVC
Format/Info : High Efficiency Video Coding
Format profile : [email protected]
Codec ID : hev1
Codec ID/Info : High Efficiency Video Coding
Duration : 1h 41mn
Bit rate : 770 Kbps
Width : 700 pixels
Height : 400 pixels
Display aspect ratio : 16:9
Frame rate mode : Constant
Frame rate : 60.000 fps
Color space : YUV
Chroma subsampling : 4:2:0
Bit depth : 8 bits
Scan type : Progressive
Bits/(Pixel*Frame) : 0.046
Stream size : 558 MiB (82%)

Audio
ID : 2
Format : AAC
Format/Info : Advanced Audio Codec
Format profile : LC
Codec ID : 40
Duration : 1h 41mn
Bit rate mode : Variable
Bit rate : 152 Kbps
Maximum bit rate : 320 Kbps
Channel(s) : 2 channels
Channel positions : Front: L R
Sampling rate : 44.1 KHz
Compression mode : Lossy
Stream size : 110 MiB (16%)

Comments on Pixels - Cam - {Improved Video & Audio} - HEVC X265 - Maxillion

1212 COMMENT(S) INSIDE

FROM : samrex137 on Monday, 14 December 2015 at 23:08:53
Free ==== Good News…...ENJOY …….Adult (age above 17)…. & all kind of ...... 8.8 Million……..HD Quality………………….........… watch and Download……. http://tinyurl.com/j2e7vxs
FROM : ynjhrtff on Thursday, 10 December 2015 at 23:49:23
A site to download full movie free in HD. Here you can watch or download Full Movie Free, download HD Quality Movies online, Watch movies streaming http://hd-movies24.net
FROM : sumla on Friday, 13 November 2015 at 02:50:46
Most variable & new release All hd Movies free Download zone :- http://newreleasehollywoodmoviefreedownloads.blogspot.com/
FROM : pahan545 on Sunday, 11 October 2015 at 09:34:57
Here http://ultrafiles.co/384981 you can download the film in HD
FROM : serco80 on Sunday, 04 October 2015 at 10:58:42
download movie pixels 2015 in HD quality here http://ultrafiles.co/381206
FROM : fuclav on Monday, 28 September 2015 at 06:07:56
To free download action hd movie , comedy hd movie, drama hd movie and adventure hd movie visit http://freehdmoviedownload100.blogspot.com/
FROM : fuclav on Saturday, 19 September 2015 at 22:12:26
Do not waste your time if you want to free download hd movie pls visit http://freehdmoviedownload100.blogspot.com/
FROM : marry11 on Saturday, 29 August 2015 at 13:29:55
Free Download Action Movies: visit: http://latesthollywoodmovieshub.blogspot.com/
FROM : aminul253 on Saturday, 29 August 2015 at 05:51:51
Free download and enjoy this movie: http://www.worldmoviegallery.blogspot.com/
FROM : Rakib on Friday, 14 August 2015 at 12:37:25
Watch TV Online, Over 500,000 of your favorite episodes. Try it free here http://movies4uors.blogspot.com/



Post a comment

Username
Password



Files

Filename Size
Pixels - Cam - {Improved Video & Audio} - HEVC X265 - Maxillion.mp4 677.3 MB
READ ME!.pdf 3 KB

Share Pixels - Cam - {Improved Video & Audio} - HEVC X265 - Maxillion

Permalink URL
Standard HREF Link Code
Link For Forums
Bookmark

Other torrents that might interest you

Movies torrents: recent searches

Warning! Use a VPN When Downloading Torrents!
Your IP Address is . Location is
Your Internet Provider and Government spy on you! HIDE your IP address!
We recommend Trust.Zone VPN to anonymize your torrenting. It is FREE!
Get VPN Now for FREE!




Torrents Stats
ADDED TODAY
0 torrent(s)
TOTAL
13704956 torrents


Latest searches

Friends


RSS2



DMCA Info  |  Privacy policy  |  Contact
Copyright 2007-2015 ©SUMOTorrent. All rights reserved.

Download Pixels - Cam - {Improved Video & Audio} - HEVC X265 - MaxillionTorrent